#TITLE:Sherlock (Clue+Note);
#SUBTITLE:Expi3nze;
#ARTIST:Shinee;
#TITLETRANSLIT:;
#SUBTITLETRANSLIT:;
#ARTISTTRANSLIT:;
#CREDIT:;
#BANNER:bn.png;
#BACKGROUND:bg.png;
#LYRICSPATH:;
#CDTITLE:cdtitle.png;
#MUSIC:Sherlock(Clue+Note).mp3;
#OFFSET:-0.240;
#SAMPLESTART:100.000;
#SAMPLELENGTH:12.000;
#SELECTABLE:YES;
#BPMS:0.000=107.004,1.000=107.000,29.000=53.500,29.333=214.000,30.000=53.500,30.333=214.000,31.000=53.500,31.333=214.000,32.000=53.500,32.333=214.000,33.000=53.500,33.333=214.000,34.000=107.000,35.000=107.004,36.000=107.000,61.000=53.500,61.333=214.000,62.000=53.500,62.333=214.000,63.000=53.500,63.333=214.000,64.000=53.500,64.333=214.000,65.000=53.500,65.333=214.000,66.000=107.000,68.000=107.004,69.000=107.000,109.000=107.004,110.000=107.000,146.000=107.004,147.000=107.000,157.000=53.500,157.333=214.000,158.000=53.500,158.333=214.000,159.000=53.500,159.333=214.000,160.000=53.500,160.333=214.000,161.000=53.500,161.333=214.000,162.000=53.500,162.333=214.000,163.000=107.000,167.000=107.004,168.000=107.000,169.000=53.500,169.333=214.000,170.000=53.500,170.333=214.000,171.000=107.000,176.000=214.008,176.500=53.502,176.750=107.004,177.000=53.500,177.333=214.000,178.000=53.500,178.333=214.000,179.000=107.000,185.000=53.500,185.333=214.000,186.000=53.500,186.333=214.000,187.000=107.000,189.000=53.500,189.333=214.000,190.000=53.500,190.333=214.000,191.000=53.500,191.333=214.000,192.000=53.500,192.333=214.000,193.000=107.000,202.000=107.004,203.000=107.000,221.000=53.500,221.333=214.000,222.000=53.500,222.333=214.000,223.000=53.500,223.333=214.000,224.000=107.000,225.000=214.008,226.000=107.000;
#STOPS:;
#BGCHANGES:;
// cache tags:
#FIRSTBEAT:1.000;
#LASTBEAT:225.500;
#SONGFILENAME:Songs/Expi3nze 4th Collection/Sherlock (Shinee)/Sherlock(Clue+Note).sm;
#HASMUSIC:1;
#HASBANNER:1;
#MUSICLENGTH:127.454;
// end cache tags

//---------------dance-single - ----------------
#NOTES:
     dance-single:
     :
     Hard:
     15:
     0.843,0.818,1.000,1.000,0.333,432.000,162.000,131.000,0.000,126.000:
0000
0000
0200
0000
0000
0020
0000
0000
,
0032
0000
0000
0000
,
0003
0000
0000
0000
,
0000
0000
0000
0000
,
0000
0000
0000
0000
0300
0010
0100
0010
0001
0000
0100
0000
0100
0010
0100
1000
,
0010
0000
0010
0000
1000
0100
0010
1000
0100
0000
0001
0010
0100
1000
0010
0000
,
0010
0000
0010
0000
0100
0010
0100
1000
0010
0000
0010
0000
0001
0010
0100
1000
,
0010
0010
2010
0000
3012
0000
2013
0000
,
3012
0000
0000
0000
2013
0000
0000
0000
3111
0000
0010
0000
1000
0100
0010
1000
,
0101
0000
0101
0000
0010
0100
1000
0010
0101
0010
1000
0100
0010
0000
2100
0000
,
3101
0000
0101
0000
2001
0000
0100
0010
3001
0000
0101
0000
0101
1000
0010
0100
,
0010
1000
0100
0010
0001
0000
2100
0000
3101
0000
0101
0000
2001
0010
3100
0000
,
2001
0000
3011
0000
2010
0001
0100
0010
3001
0000
1010
0000
1010
0001
0100
0010
,
0001
0000
1100
0000
1100
0001
0010
0100
1000
0001
0100
1000
0011
0000
0002
0000
,
0013
0000
1010
0000
1012
0000
0010
0100
1003
0000
0010
0000
0010
0100
0010
0001
,
1100
0010
1000
0000
1002
0000
0000
0000
2013
0000
0000
0000
3020
0000
0000
0000
,
2130
0000
0000
0000
3102
0000
0000
0000
1113
0000
0010
0000
1000
0100
0010
1000
,
0101
0000
0101
0000
0010
0100
1000
0010
0101
0010
1000
0100
0010
0000
2100
0000
,
3101
0000
0101
0000
2001
0000
0100
0010
3001
0000
0101
0000
0101
1000
0010
0100
,
0010
1000
0100
0010
0001
0000
2100
0000
3101
0000
0101
0000
2001
0010
3100
0000
,
2001
0000
3011
0000
2010
0001
0100
0010
3001
0000
1010
0000
1010
0001
0100
0010
,
0001
0000
1100
0000
1100
0001
0010
0100
1000
0001
0100
1000
0011
0000
0002
0000
,
0013
0000
1010
0000
1012
0000
0010
0100
1003
0000
0010
0000
1000
0100
0010
1000
,
0110
1000
0001
0010
0100
0001
2010
0000
3101
0000
0101
0000
2100
0010
3001
0000
,
2010
0000
3101
0000
2010
0000
0010
0000
0101
0000
0101
0000
0001
0010
0100
0001
,
0010
0000
0001
0000
3120
0000
0100
0000
0101
0000
1000
1000
0100
1000
2000
0000
,
3101
0000
0101
0000
2130
0000
0100
0010
3001
0000
0101
0000
0101
1000
0010
0100
,
1000
0000
0010
0100
0010
0001
2100
0000
3101
0000
0101
0000
2001
0010
3100
0001
,
2010
0000
3001
0000
1002
0000
1000
0000
1010
0000
1010
0000
1000
0100
0010
1000
,
0100
0000
1000
0000
1023
0000
1000
0000
1001
0000
1001
0000
1000
1000
1002
0000
,
1103
0000
1100
0000
2030
0000
0000
0000
3111
0000
0101
0000
0001
0010
0100
1000
,
0011
0000
1000
0100
0010
1000
0120
0000
1030
0000
0010
0000
1020
0000
1030
0000
,
1120
1030
1020
0000
1100
0000
0000
0000
,
1100
0000
0200
0302
0103
0200
0302
0000
,
1103
1000
1030
0001
0101
0100
0100
0000
,
0200
0320
2030
3200
0312
2003
3020
0000
,
0101
0100
2130
0000
3111
0000
0020
0200
,
0002
2330
0113
0000
0110
0200
0020
0300
,
3131
0101
0101
0000
1010
0000
1010
0000
,
1010
2110
3211
0321
,
1132
0000
2213
0000
0312
0000
0213
0020
,
0331
0000
0200
0000
3012
0000
1300
0000
1010
0000
0010
1000
1010
0000
2000
0000
,
3210
0320
2233
0000
0312
0000
0203
0020
,
0331
0020
3201
0030
0011
2000
0021
3030
,
1011
0000
2312
0000
3020
0000
2030
0020
,
3130
0200
2013
0300
0110
0200
0002
0300
,
0110
0000
3223
0000
1032
0000
2003
0020
,
3031
0020
2302
0030
0210
0000
3020
0000
,
1300
0000
2133
0000
0111
0020
0231
0300
,
0111
0020
3231
0000
1011
2000
0020
3030
,
1011
0000
2311
0000
0111
0200
0312
0003
,
0111
0200
3312
0000
1110
0000
2100
0000
,
3020
0000
2133
0200
0011
0000
0011
0300
,
0211
3312
1110
1110
,
1110
0000
1000
0100
2013
0000
0001
0010
0100
0000
0001
0010
0100
0000
0010
0000
,
0111
3122
0200
2003
,
0002
0000
0000
3333
0000
0000
0000
0000
,
0000
0000
0000
0000
,
0000
0000
0000
0000
,
0000
0000
0000
0000
,
0000
0000
0000
0000
,
0000
0000
0000
0000
,
0000
0000
0000
0000
,
0000
0000
0000
0000
,
0000
0000
0000
0000
;
